AVI 及び WMV形式の動画をコマンドもしくはプログラム(COMなど)を使ってFLVに変換する方法を教えて下さい。OSはWindows XP SP2です。

AVI は Display2AVI (http://www.vector.co.jp/soft/winnt/art/se368508.html) で取得した動画、WMV はWindows Media Encoder でウェブカメラから取得した動画です。

FFMpeg を使ってWMVは変換できましたが画質がかなり落ちてしまいました。
AVIはこの質問のコメント欄のようなエラーが発生して変換ができません。


良好に変換できる方法を御存知の方、以下の条件を満した上で回答お願いします。

OS は Windows XP SP2 (HOME & PRO)
WMV、AVIからFLVに変換する
コーデック、変換ソフトが入っていない0からの状態での説明で始めて下さい
変換処理をプログラムに組込めるよう、COMかコマンドラインで変換が実行可能

可能な限りフリーソフトを利用してください。(絶対ではありません)
一番早く有力な回答を頂いた方に多くポイントを配点します。

回答の条件
  • 1人5回まで
  • 登録:2008/06/19 23:30:05
  • 終了:2008/06/21 20:40:59

回答(1件)

質問者が未読の回答一覧

 回答者回答受取ベストアンサー回答時間
1 redwing1 541 402 3 2008-06-20 00:34:10
  • id:ichiroc
    C:\movie>ffmpeg\ffmpeg.exe -i test.avi -vcodec flv output.flv
    FFmpeg version SVN-r9767, Copyright (c) 2000-2007 Fabrice Bellard, et al.
    configuration: --enable-gpl --enable-pp --enable-swscaler --enable-pthreads --
    enable-liba52 --enable-avisynth --enable-libamr-nb --enable-libamr-wb --enable-l
    ibfaac --enable-libfaad --enable-libgsm --enable-libmp3lame --enable-libnut --en
    able-libogg --enable-libtheora --enable-libvorbis --enable-libx264 --enable-libx
    vid --cpu=i686 --enable-memalign-hack --extra-ldflags=-static
    libavutil version: 49.4.1
    libavcodec version: 51.40.4
    libavformat version: 51.12.1
    built on Jul 20 2007 18:03:34, gcc: 4.2.0
    Input #0, avi, from 'test.avi':
    Duration: 00:00:10.2, start: 0.000000, bitrate: 15257 kb/s
    Stream #0.0: Video: RuSH / 0x48537552, 1128x996, 15.00 fps(r)
    Stream #0.1: Audio: pcm_s16le, 48000 Hz, stereo, 1536 kb/s
    swScaler: Unknown format is not supported as input format
    Cannot get resampling context

この質問への反応(ブックマークコメント)

「あの人に答えてほしい」「この質問はあの人が答えられそう」というときに、回答リクエストを送ってみてましょう。

これ以上回答リクエストを送信することはできません。制限について

絞り込み :
はてなココの「ともだち」を表示します。
回答リクエストを送信したユーザーはいません